Annotation

Lyrics: Girls Rituals
Vocals: Girls Rituals
Backup Vocals: hjkl;8901


The metadata in the FLAC files downloaded from Bandcamp, have the track numbers transposed. All other metadata appears to be correct.

02 CHEMICAL BURN v 1.0.flac
total samples: 11769849
MD5 signature: 79023b9d4578dac18272f11de0d529e5
comment0: TITLE=CHEMICAL BURN v 1.0
comment5: TRACKNUMBER=2

vs.

01 CHEMICAL BURN v 2.0 (w- Girls Rituals).flac
total samples: 5575563
MD5 signature: e1fdee4c148d9e0f593e799e7574482c
comment0: TITLE=CHEMICAL BURN v 2.0 (w/ Girls Rituals)
comment5: TRACKNUMBER=1

Annotation last modified on 2021-06-01 10:29 UTC.

Tracklist

Digital Media 1
# Title Artist Rating Length
1 CHEMICAL BURN v 1.0 Sophiaaaahjkl;8901 4:27
2 CHEMICAL BURN v 2.0 Sophiaaaahjkl;8901 (w/ Girls Rituals) 2:06

Credits