Disc ID “uAHOGbyApLprziY7CC0vcfewpRc-

CD TOC details

Full TOC: 1 10 228220 150 36882 51750 88235 124210 149922 168842 186002 198905 214865
Disc ID: uAHOGbyApLprziY7CC0vcfewpRc-
FreeDB: 960be00a
Total tracks: 10
Total length: 50:43
Track details:
Track Start Length End
Time Sectors Time Sectors Time Sectors
1 0:02 150 8:10 36732 8:12 36882
2 8:12 36882 3:18 14868 11:30 51750
3 11:30 51750 8:06 36485 19:36 88235
4 19:36 88235 8:00 35975 27:36 124210
5 27:36 124210 5:43 25712 33:19 149922
6 33:19 149922 4:12 18920 37:31 168842
7 37:31 168842 3:49 17160 41:20 186002
8 41:20 186002 2:52 12903 44:12 198905
9 44:12 198905 3:33 15960 47:45 214865
10 47:45 214865 2:58 13355 50:43 228220

Attached to releases

Position Title Artist Format Country/Date Label Catalog# Barcode
1/1 (show tracklist) Bach Family Notebook J.S. Bach; Royal Promenade Chamber Orchestra, Simpson CD
Quintessence (classical) CDQ 2037 015095203724