Disc ID “twLnszk5e75VCmhnWelZ60htnFY-

CD TOC details

Full TOC: 1 4 74632 150 21277 36490 55865
Disc ID: twLnszk5e75VCmhnWelZ60htnFY-
FreeDB: 3003e104
Total tracks: 4
Total length: 16:35
Track details:
Track Start Length End
Time Sectors Time Sectors Time Sectors
1 0:02 150 4:42 21127 4:44 21277
2 4:44 21277 3:23 15213 8:07 36490
3 8:07 36490 4:18 19375 12:25 55865
4 12:25 55865 4:10 18767 16:35 74632

Attached to releases

Position Title Artist Format Country/Date Label Catalog# Barcode
1/1 (show tracklist) Crush With Eyeliner (cd3) R.E.M. CD
  • GB1995-01-23
Warner Bros. Records (1958–2019; “WB” logo, with or without “records” beneath or on banner across) 9362-41904-2, W0281CD 093624190424