Disc ID “pxnHFSuLVX.Z980f0zA9UgDpHeA-

CD TOC details

Full TOC: 1 4 74568 150 21265 36500 55720
Disc ID: pxnHFSuLVX.Z980f0zA9UgDpHeA-
FreeDB: 2e03e004
Total tracks: 4
Total length: 16:34
Track details:
Track Start Length End
Time Sectors Time Sectors Time Sectors
1 0:02 150 4:42 21115 4:44 21265
2 4:44 21265 3:23 15235 8:07 36500
3 8:07 36500 4:16 19220 12:23 55720
4 12:23 55720 4:11 18848 16:34 74568

Attached to releases

Position Title Artist Format Country/Date Label Catalog# Barcode
1/1 (show tracklist) Crush With Eyeliner (cd3) R.E.M. CD
  • GB1995-01-23
Warner Bros. Records (1958–2019; “WB” logo, with or without “records” beneath or on banner across) 9362-41904-2, W0281CD 093624190424
1/1 (show tracklist) Crush With Eyeliner R.E.M. CD
  • JP1998-10-26
Warner Bros. Records (1958–2019; “WB” logo, with or without “records” beneath or on banner across) WPCR-2177 4943674217724