Disc ID “caEdKgR2q5v8cYkl42UKygwBaHA-

CD TOC details

Full TOC: 1 11 188364 150 13586 33655 50473 64867 80162 98586 113967 128619 147890 162210
Disc ID: caEdKgR2q5v8cYkl42UKygwBaHA-
FreeDB: 8f09cd0b
Total tracks: 11
Total length: 41:52
Track details:
Track Start Length End
Time Sectors Time Sectors Time Sectors
1 0:02 150 2:59 13436 3:01 13586
2 3:01 13586 4:28 20069 7:29 33655
3 7:29 33655 3:44 16818 11:13 50473
4 11:13 50473 3:12 14394 14:25 64867
5 14:25 64867 3:24 15295 17:49 80162
6 17:49 80162 4:06 18424 21:54 98586
7 21:54 98586 3:25 15381 25:20 113967
8 25:20 113967 3:15 14652 28:35 128619
9 28:35 128619 4:17 19271 32:52 147890
10 32:52 147890 3:11 14320 36:03 162210
11 36:03 162210 5:49 26154 41:52 188364

Attached to releases

Position Title Artist Format Country/Date Label Catalog# Barcode
1/1 (show tracklist) The Dollar Jamey Johnson CD
  • US2006-01-31
BNA Records BNA-82876-72690-2 828767269023