Disc ID “YxBgiyg3aeKet7wy.tZvvc3PjN8-

CD TOC details

Full TOC: 1 15 265917 150 15236 31152 49001 64468 77906 98156 120735 142483 166852 186248 204274 220179 235198 250847
Disc ID: YxBgiyg3aeKet7wy.tZvvc3PjN8-
FreeDB: ce0dd70f
Total tracks: 15
Total length: 59:06
Track details:
Track Start Length End
Time Sectors Time Sectors Time Sectors
1 0:02 150 3:21 15086 3:23 15236
2 3:23 15236 3:32 15916 6:55 31152
3 6:55 31152 3:58 17849 10:53 49001
4 10:53 49001 3:26 15467 14:20 64468
5 14:20 64468 2:59 13438 17:19 77906
6 17:19 77906 4:30 20250 21:49 98156
7 21:49 98156 5:01 22579 26:50 120735
8 26:50 120735 4:50 21748 31:40 142483
9 31:40 142483 5:25 24369 37:05 166852
10 37:05 166852 4:19 19396 41:23 186248
11 41:23 186248 4:00 18026 45:24 204274
12 45:24 204274 3:32 15905 48:56 220179
13 48:56 220179 3:20 15019 52:16 235198
14 52:16 235198 3:29 15649 55:45 250847
15 55:45 250847 3:21 15070 59:06 265917

Attached to releases

Position Title Artist Format Country/Date Label Catalog# Barcode
1/1 (show tracklist) Greatest Hits II Kenny Chesney CD
  • US2009-05-19
RCA (RCA Records: simple ‘RCA’ or ‘RCA’ with lightning bolt in circle)
1/1 (show tracklist) Greatest Hits II Kenny Chesney CD
  • US2009-05-19
BNA Records 88697-49530-2 886974953029