Disc ID “Lzg28tH08XhxKwwOBn0ndG2y7tw-

CD TOC details

Full TOC: 1 14 230002 150 15204 31913 46388 63427 78539 93732 109764 128028 144943 162487 178358 197331 214343
Disc ID: Lzg28tH08XhxKwwOBn0ndG2y7tw-
FreeDB: be0bf80e
Total tracks: 14
Total length: 51:07
Track details:
Track Start Length End
Time Sectors Time Sectors Time Sectors
1 0:02 150 3:21 15054 3:23 15204
2 3:23 15204 3:43 16709 7:06 31913
3 7:06 31913 3:13 14475 10:19 46388
4 10:19 46388 3:47 17039 14:06 63427
5 14:06 63427 3:21 15112 17:27 78539
6 17:27 78539 3:23 15193 20:50 93732
7 20:50 93732 3:34 16032 24:24 109764
8 24:24 109764 4:04 18264 28:27 128028
9 28:27 128028 3:46 16915 32:13 144943
10 32:13 144943 3:54 17544 36:06 162487
11 36:06 162487 3:32 15871 39:38 178358
12 39:38 178358 4:13 18973 43:51 197331
13 43:51 197331 3:47 17012 47:38 214343
14 47:38 214343 3:29 15659 51:07 230002

Attached to releases

Position Title Artist Format Country/Date Label Catalog# Barcode
1/1 (show tracklist) Dead Can Dance / Garden of the Arcane Delights (Reversed Cover) Dead Can Dance CD
  • GB1994-03-22
4AD CAD 404 CD 5014436404023
1/1 (show tracklist) Dead Can Dance / Garden of the Arcane Delights Dead Can Dance CD Sonic Records (Polish label, releases Polish pop, rock and alternative) SON 68 5901844906822
1/1 (show tracklist) Dead Can Dance / Garden of the Arcane Delights Dead Can Dance CD
  • GB2008-11-17
4AD CAD 2705 CD 6526372705250
1/1 (show tracklist) Dead Can Dance / Garden of the Arcane Delights Dead Can Dance CD
  • US2008-11-18
4AD CAD 2705 CD 652637270525