Disc ID “IAczpSCDcpIKQ5hlTsoiZipKIiE-

CD TOC details

Full TOC: 1 4 74560 182 21292 36477 55875
Disc ID: IAczpSCDcpIKQ5hlTsoiZipKIiE-
FreeDB: 3103e004
Total tracks: 4
Total length: 16:34
Track details:
Track Start Length End
Time Sectors Time Sectors Time Sectors
1 0:02 182 4:41 21110 4:44 21292
2 4:44 21292 3:22 15185 8:06 36477
3 8:06 36477 4:19 19398 12:25 55875
4 12:25 55875 4:09 18685 16:34 74560

Attached to releases

Position Title Artist Format Country/Date Label Catalog# Barcode
1/1 (show tracklist) Crush With Eyeliner (cd3) R.E.M. CD
  • GB1995-01-23
Warner Bros. Records (1958–2019; “WB” logo, with or without “records” beneath or on banner across) 9362-41904-2, W0281CD 093624190424
1/1 (show tracklist) Crush With Eyeliner R.E.M. CD
  • JP1998-10-26
Warner Bros. Records (1958–2019; “WB” logo, with or without “records” beneath or on banner across) WPCR-2177 4943674217724
1/1 (show tracklist) Crush With Eyeliner R.E.M. CD
  • US1995-08-15
Warner Bros. Records (1958–2019; “WB” logo, with or without “records” beneath or on banner across) 9 41904-2 093624190424