Disc ID “EUBO6Cfs5kxHh2KJdbKXU0G4Tyg-

CD TOC details

Full TOC: 1 4 74562 150 21117 31977 55875
Disc ID: EUBO6Cfs5kxHh2KJdbKXU0G4Tyg-
FreeDB: 2903e004
Total tracks: 4
Total length: 16:34
Track details:
Track Start Length End
Time Sectors Time Sectors Time Sectors
1 0:02 150 4:40 20967 4:42 21117
2 4:42 21117 2:25 10860 7:06 31977
3 7:06 31977 5:19 23898 12:25 55875
4 12:25 55875 4:09 18687 16:34 74562

Attached to releases

Position Title Artist Format Country/Date Label Catalog# Barcode
1/1 (show tracklist) Crush With Eyeliner (cd3) R.E.M. CD
  • GB1995-01-23
Warner Bros. Records (1958–2019; “WB” logo, with or without “records” beneath or on banner across) 9362-41904-2, W0281CD 093624190424