Disc ID “DlTyrV4j37E53fuGMDNHdIEqZIM-

CD TOC details

Full TOC: 1 4 74560 182 21292 36477 54945
Disc ID: DlTyrV4j37E53fuGMDNHdIEqZIM-
FreeDB: 2d03e004
Total tracks: 4
Total length: 16:34
Track details:
Track Start Length End
Time Sectors Time Sectors Time Sectors
1 0:02 182 4:41 21110 4:44 21292
2 4:44 21292 3:22 15185 8:06 36477
3 8:06 36477 4:06 18468 12:13 54945
4 12:13 54945 4:22 19615 16:34 74560

Attached to releases

Position Title Artist Format Country/Date Label Catalog# Barcode
1/1 (show tracklist) Crush With Eyeliner (cd3) R.E.M. CD
  • GB1995-01-23
Warner Bros. Records (1958–2019; “WB” logo, with or without “records” beneath or on banner across) 9362-41904-2, W0281CD 093624190424